Re: Vančura Vladislav | Llueve Por Dentro | Les Petits mouchoirs
 

LYNDA The New Rules of Work Gary Bolles

LYNDA The New Rules of Work Gary Bolles|1.32 GB
Description

Lynda.com:
The New Rules of Work
Instructor: Gary Bolles
Business, Leadership, Career Development
Released: 08/06/2017

Course Page

Course Description:

In order to remain competitive in a world of constant change, job seekers and workers need to adapt. The changing nature and duration of employment can be scary for job seekers and those within industries who are being disrupted by automation and AI. In this course, career expert Gary Bolles helps job seekers and employees prepare themselves for the new reality of work. He outlines how workers need to think differently about their chosen career path, learning, and their life outside of work. To remain employable, lifelong learning isn’t just nice,it’s necessary.
Topics include:

Why there are new rules of work, learning, and life
Thinking like an entrepreneur
Building your network
Doing work driven by meaning
Understanding the new rules of learning
Becoming a lifelong learner
Planning for leisure like you plan for work and learning
Making time to give back
What to do when the rules change again

Table of Contents:

Introduction
1. The Rules have Changed
2. The New Rules of Work
3. The New Rules of Learning
4. The New Rules of Life
5. What to do when the Rules Change Again
Conclusion

About the Instructor:

Gary A. Bolles is a lecturer and the cofounder of eParachute. Inspired by the best-selling career book What Color Is Your Parachute?: A Practical Manual for Job-Hunters and Career-Changers, eParachute provides online and in-person programs to help job hunters and career changers. As a partner in Charrette LLC, Gary helps clients identify and understand disruptive trends, often through strategic conferences, innovation consulting, and collaborative initiatives. He has served as a strategic consultant and consulting producer for clients such as Google, Singularity University, Yahoo!, TED, the United Nations, the New Zealand government, the Guggenheim Museum, L’Or,al, Red Bull, National Australia Bank, and the London Business School.Gary lectures regularly on the future of work and learning, and publishes his writings and presentations on LinkedIn and SlideShare. He has also cofounded a variety of conferences and strategic events, such as DGREE, a 2010 conference focused on the future of higher education, and SOCAP, a gathering for impact entrepreneurs and investors. Formerly, he was the editorial director of technology publications such as Yahoo! Internet Life, as well as the on-screen host of TechTV’s Working the Web.

Mediainfo wrote:

General
Complete name                            : \\Lynda.com.The.New.Rules.of.Work.2017.06.08\002 Why everything is changing.mp4
Format                                   : MPEG-4
Format profile                           : Base Media / Version 2
Codec ID                                 : mp42 (mp42/isom)
File size                                : 46.2 MiB
Duration                                 : 2 min 28 s
Overall bit rate mode                    : Constant
Overall bit rate                         : 2 612 kb/s
Encoded date                             : UTC 2017-05-30 19:09:42
Tagged date                              : UTC 2017-05-30 19:09:42

Video
ID                                       : 1
Format                                   : AVC
Format/Info                              : Advanced Video Codec
Format profile                           : [email protected]
Format settings, CABAC                   : Yes
Format settings, ReFrames                : 5 frames
Codec ID                                 : avc1
Codec ID/Info                            : Advanced Video Coding
Duration                                 : 2 min 28 s
Bit rate mode                            : Constant
Bit rate                                 : 2 300 kb/s / 2 300 kb/s
Maximum bit rate                         : 10.8 Mb/s
Width                                    : 1 280 pixels
Height                                   : 720 pixels
Display aspect ratio                     : 16:9
Frame rate mode                          : Constant
Frame rate                               : 29.970 (30000/1001) FPS
Color space                              : YUV
Chroma subsampling                       : 4:2:0
Bit depth                                : 8 bits
Scan type                                : Progressive
Bits/(Pixel*Frame)                       : 0.083
Stream size                              : 40.4 MiB (87%)
Title                                    : Telestream Inc. Dib Library – ReleaseVantage 2014.59.138974
Writing library                          : x264 core 129
Encoding settings                        : cabac=1 / ref=5 / deblock=1:0:0 / analyse=0x1:0x111 / me=hex / subme=7 / psy=1 / psy_rd=1.00:0.00 / mixed_ref=1 / me_range=16 / chroma_me=1 / trellis=1 / 8x8dct=0 / cqm=0 / deadzone=21,11 /fast_pskip=1 / chroma_qp_offset=-2 / threads=12 / lookahead_threads=2 / sliced_threads=0 / nr=0 / decimate=1 / interlaced=0 / bluray_compat=0 / constrained_intra=0 / bframes=1 / b_pyramid=0 / b_adapt=1 / b_bias=0 / direct=1 / weightb=1 / open_gop=0 / weightp=2 / keyint=300 / keyint_min=29 / scenecut=40 / intra_refresh=0 / rc_lookahead=40 / rc=cbr / mbtree=1 / bitrate=2300 / ratetol=1.0 / qcomp=0.60 / qpmin=0 / qpmax=69 / qpstep=4 / vbv_maxrate=2300 / bv_bufsize=23000 / nal_hrd=cbr / ip_ratio=3.00 / aq=1:1.00
Language                                 : English
Encoded date                             : UTC 2017-05-30 19:09:42
Tagged date                              : UTC 2017-05-30 19:09:42

Audio
ID                                       : 2
Format                                   : AAC
Format/Info                              : Advanced Audio Codec
Format profile                           : LC
Codec ID                                 : 40
Duration                                 : 2 min 28 s
Bit rate mode                            : Constant
Bit rate                                 : 320 kb/s
Nominal bit rate                         : 128 kb/s
Channel(s)                               : 2 channels
Channel positions                        : Front: L R
Sampling rate                            : 48.0 kHz
Frame rate                               : 46.875 FPS (1024 spf)
Compression mode                         : Lossy
Stream size                              : 5.66 MiB (12%)
Title                                    : Telestream Inc. Dib Library – ReleaseVantage 2014.59.138974
Language                                 : English
Encoded date                             : UTC 2017-05-30 19:09:42
Tagged date                              : UTC 2017-05-30 19:09:42
URL:
http://www.lynda.com/Leadership-Management-tutorials/New-Rules-Work/580628-2.html


Download link:

Links are Interchangeable - Single Extraction - Premium is support resumable

IF YOU DON'T SEE LINK PLEASE VISIT http://www.rufreebox . us TO DOWNLOAD IT. THANK YOU VERY MUCH

Dear visitor, you went to the site as unregistered user.
We recommend that you create or enter the site your name.
Information
Would you like to leave your comment and see hide contents ? Please Login to your account to leave comments. Don't have an account? You can create a free account now.